#TITLE:Irreversible;
#SUBTITLE:Expi3nze;
#ARTIST:GaIn;
#TITLETRANSLIT:;
#SUBTITLETRANSLIT:;
#ARTISTTRANSLIT:;
#CREDIT:;
#BANNER:bn.png;
#BACKGROUND:bg.png;
#LYRICSPATH:;
#CDTITLE:cdtitle.png;
#MUSIC:Irreversible.mp3;
#OFFSET:-0.486;
#SAMPLESTART:61.611;
#SAMPLELENGTH:12.000;
#SELECTABLE:YES;
#BPMS:0.000=53.011,0.167=212.070,0.500=53.011,0.667=212.070,1.000=106.027,1.500=53.011,1.667=212.070,2.000=106.027,2.500=53.011,3.000=53.011,3.167=212.070,3.500=53.011,3.667=212.070,4.000=106.022,5.000=106.018,5.500=53.011,5.667=212.070,6.000=53.011,6.167=212.070,6.500=106.027,7.000=106.018,7.500=53.011,8.000=53.011,8.167=212.070,8.500=53.011,9.000=53.010,9.667=212.070,10.000=53.011,10.167=212.070,10.500=106.027,11.000=106.018,11.500=53.011,12.000=106.022,13.000=106.018,14.000=106.027,14.500=53.011,14.667=212.070,15.000=53.011,15.500=106.027,16.000=106.018,16.500=53.011,16.667=212.070,17.000=53.011,17.167=212.070,17.500=106.027,18.000=106.018,19.000=53.011,19.167=212.070,19.500=53.011,19.667=212.070,20.000=106.022,21.000=53.011,21.500=106.027,22.000=53.011,22.667=212.070,23.000=53.011,23.167=212.070,23.500=53.011,23.667=212.070,24.000=106.022,25.000=106.018,25.500=53.011,26.000=53.009,26.500=106.027,27.000=106.018,28.500=53.011,29.000=106.022,30.000=106.018,31.000=106.022,32.000=53.011,32.500=106.027,33.000=106.018,34.000=106.022,35.000=106.018,35.500=53.011,36.000=106.022,37.000=106.018,38.000=106.022,39.000=53.011,39.500=106.027,40.000=106.018,41.000=106.022,42.000=106.018,42.500=53.011,43.000=106.022,44.000=106.018,45.000=106.022,46.000=53.011,46.500=106.027,47.000=106.018,48.000=106.022,49.000=106.018,49.500=53.011,50.000=106.022,51.000=106.018,51.500=53.011,52.000=106.027,52.500=212.087,52.750=424.310,53.000=424.038,53.750=212.087,54.000=106.022,55.000=106.018,56.000=106.022,57.000=106.018,58.000=106.022,59.000=106.018,60.000=106.022,61.000=106.018,63.000=106.022,64.000=106.018,65.000=106.022,66.000=106.018,67.000=106.022,68.000=106.018,69.000=106.022,70.000=106.018,72.000=106.022,73.000=106.018,74.000=106.022,75.000=106.018,76.000=106.022,77.000=106.018,79.000=106.022,80.000=106.018,81.000=106.022,82.000=106.018,83.000=106.022,84.000=106.018,85.000=106.022,86.000=106.018,88.000=106.022,89.000=106.018,90.000=106.022,91.000=106.018,92.000=106.022,93.000=106.018,94.000=106.022,95.000=106.018,97.000=106.022,98.000=106.018,99.000=106.022,100.000=106.018,101.000=106.022,102.000=106.018,103.000=106.022,104.000=106.018,106.000=106.022,107.000=106.018,108.000=106.022,109.000=106.018,110.000=106.022,111.000=106.018,112.000=106.022,113.000=106.018,115.000=106.022,116.000=106.018,117.000=106.022,118.000=106.018,119.000=53.011,119.167=212.070,119.500=53.011,119.667=212.070,120.000=106.022,121.000=106.018,122.000=106.022,123.000=106.018,124.000=106.022,125.000=106.018,127.000=106.022,128.000=106.018,129.000=106.022,130.000=106.018,131.000=106.022,132.000=106.018,133.000=106.022,134.000=106.018,136.000=106.022,137.000=106.018,138.000=106.022,139.000=106.018,140.000=106.022,141.000=106.018,142.000=106.022,143.000=106.018,145.000=106.022,146.000=106.018,147.000=106.022,148.000=106.018,149.000=106.022,150.000=106.018,151.500=53.011,151.667=212.070,152.000=106.022,153.000=106.018,154.000=106.022,155.000=106.018,156.000=106.022,157.000=106.018,159.000=106.022,160.000=106.018,161.000=106.022,162.000=106.018,163.000=106.022,164.000=106.018,166.000=106.022,167.000=106.018,168.000=106.022,169.000=106.018,170.000=106.022,171.000=106.018,172.000=106.022,173.000=106.018,175.000=106.022,176.000=106.018,177.000=106.022,178.000=106.018,179.000=106.022,180.000=106.018,181.000=106.022,182.000=106.018,184.000=53.011,184.167=212.070,184.500=53.011,184.667=212.070,185.000=106.022,186.000=106.018,186.500=53.011,187.000=53.011,187.167=212.070,187.500=53.011,187.667=212.070,188.000=106.022,189.000=53.011,189.167=212.070,189.500=53.011,189.667=212.070,190.000=53.011,190.167=212.070,190.500=106.018,191.000=106.027,191.500=53.011,192.000=53.011,192.167=212.070,192.500=53.011,192.667=53.002,193.000=53.011,193.667=212.070,194.000=53.011,194.167=212.070,194.500=106.018,195.000=106.027,195.500=53.011,196.000=106.022,197.000=106.021,197.750=26.504,197.875=53.013,198.000=106.018,198.500=53.011,199.000=106.022,200.000=106.018,200.500=53.011,201.000=106.022,202.000=106.018,203.000=106.022,204.000=53.011,204.500=106.018,205.000=53.011,205.500=106.018,206.000=106.022,207.000=106.018,208.000=106.027,208.500=53.011,209.000=53.009,209.500=106.018,210.000=106.022,211.000=106.018,211.500=53.011,212.000=106.022,213.000=106.018,214.000=106.022,215.000=53.011,215.500=106.018,216.000=106.022,217.000=53.010,218.000=1696.150,219.000=1697.240,220.000=1696.150,226.000=1697.240,227.000=1696.150,232.000=1697.240,233.000=1696.150,239.000=1697.240,240.000=1696.150,245.000=1697.240,246.000=1696.150,250.000=106.010,251.000=106.005,252.000=106.010,254.000=106.005,255.000=106.010,257.000=106.005,258.000=106.010,259.000=106.005,260.000=106.010,262.000=106.005,263.000=106.010,265.000=106.005,266.000=106.010,267.000=106.005,268.000=106.010,270.000=106.005,271.000=212.019,272.500=106.010,272.750=424.038,276.000=424.038,276.750=212.019,278.000=212.019,278.750=106.010,279.083=424.038,279.750=212.019,283.000=212.002,284.000=212.019,289.000=212.002,290.000=212.019;
#STOPS:;
#BGCHANGES:;
// cache tags:
#FIRSTBEAT:0.000;
#LASTBEAT:279.750;
#SONGFILENAME:Songs/Super Dancer Online/Irreversible/Irreversible.sm;
#HASMUSIC:0;
#HASBANNER:0;
#MUSICLENGTH:100.000;
// end cache tags

//---------------dance-single - ----------------
#NOTES:
     dance-single:
     :
     Hard:
     21:
     1.000,1.000,1.000,1.000,1.000,758.000,190.000,331.000,0.000,214.000:
0200
0000
0320
0000
2030
3000
0020
0000
2030
3020
0230
0000
0302
0000
0203
0000
,
0320
2030
3020
0000
2030
0000
3002
0000
0203
0000
0320
0230
0302
0023
0032
0000
,
0203
0000
0320
0000
2030
0000
3020
0000
0032
0000
0203
0302
2003
3200
0320
0000
,
0030
0000
0020
0230
0302
2003
3020
0000
0030
0000
0020
0000
2030
0000
3002
0000
,
0203
0000
2300
0000
3002
0000
0203
0320
2030
3000
0020
0000
0230
0000
0302
0000
,
0203
0320
0230
2300
3020
0000
0032
0000
0203
0000
0320
0000
2030
0000
3002
0000
,
0203
0000
0320
2030
3200
0302
0203
0000
0300
0000
0020
2030
3210
0300
0001
1000
,
2011
0000
3020
0000
0131
0000
0101
0000
2000
0110
3200
0000
0301
0000
0210
0302
,
0123
0001
0032
0000
2003
0000
3200
0010
1320
0000
0031
0000
2011
0000
3020
0100
,
0230
0001
0312
0000
1103
0001
0200
0000
0312
2003
3210
0320
1230
0000
0302
0203
,
0321
0032
2003
3020
0231
0010
0300
0120
0230
0000
0302
0010
2013
0000
3200
0000
,
0310
1000
0020
0000
0030
1000
0210
0300
0120
0000
1030
0010
0110
1000
0010
0000
,
0120
0000
0231
0312
0123
0000
2030
0001
3012
0000
0203
1000
0321
0000
0032
0000
,
0223
0300
0030
0000
0000
0000
0000
0000
0110
0000
0020
0000
1230
0000
0312
0003
,
0010
0000
1000
1100
1001
0000
1000
1100
1001
0000
0000
0000
0011
0000
1000
0000
,
0100
1000
0001
0011
1001
1010
1001
1000
0011
0000
0000
0000
0011
0000
0000
0000
,
0010
0110
0010
1000
0011
1000
0000
0010
1010
1000
0001
0101
1001
0000
0001
0100
,
0011
0000
1001
0000
1001
0000
0001
0101
1001
0000
0000
0000
0101
0000
0000
0000
,
0100
0000
1000
1100
1001
0000
0010
0110
0010
0000
0000
0000
0110
0000
0000
0000
,
0100
0000
0001
0011
0101
0000
2000
0010
3020
0230
0312
0023
0132
0000
0013
0000
,
1001
1100
1000
0000
0011
0000
0100
0110
0100
0000
0000
0000
0111
0000
0000
0000
,
0010
0110
0010
1000
1001
1000
0010
0110
0010
1000
0010
0000
0110
0000
0010
0000
,
1200
0000
0301
0011
0100
0000
0020
0001
0132
0000
2003
0000
3101
0000
0000
0000
,
0001
0011
0101
0001
1100
0000
0010
0110
0010
0000
0000
0000
0020
0230
0312
0023
,
0032
0000
0010
0010
1010
0000
0010
0110
0010
0000
0010
0010
1010
0000
0010
0000
,
0110
0000
0010
0010
1010
0000
0010
0110
0010
0000
0010
0000
0110
0000
0010
0000
,
0013
0000
0010
0110
0010
0000
0010
0000
0010
0000
0000
0000
0110
0000
0000
0000
,
1001
0101
0001
0000
1001
0000
0001
0101
1001
0000
0000
0000
0110
0000
0000
0000
,
2000
0000
3002
1000
2103
0000
3002
1000
2103
0000
3002
1000
2103
0000
3002
0010
,
0023
0000
0100
0101
0201
0000
1000
0000
1001
0001
1000
0000
1001
0000
1001
0000
,
2032
0300
0103
0200
0311
0000
0200
0010
0312
0000
0103
0200
0311
0000
0200
0010
,
0312
0000
0103
0200
0311
0000
0020
0001
0132
0000
0103
0200
0311
0000
0020
0030
,
3021
0000
0032
0010
2013
0000
3020
0001
0130
0000
0001
0011
1001
0000
1000
1100
,
1001
0000
0001
0000
1001
0000
0010
0110
0010
0000
0010
0110
0010
0000
0100
0010
,
2000
0000
3010
0110
0010
0000
0002
0010
0213
0000
0302
0023
0231
0320
0231
0002
,
0323
0000
2030
3200
0321
0032
0203
0320
0032
2003
3210
0302
1103
0000
0010
0000
,
2000
3200
0312
0203
0321
0030
0010
0000
0020
0000
0002
0100
1103
0000
0201
0300
,
2001
0000
0100
0100
0101
0000
0100
0000
0100
0000
0001
0001
0101
0000
0031
0000
,
3012
0000
0110
0000
0210
0000
1000
0000
1000
0000
1000
0010
1010
0000
0010
0020
,
2033
0000
0010
0021
0332
0003
0200
0301
0012
0003
0200
0001
0321
0000
0002
0100
,
3203
0000
0302
0103
0202
0003
0001
1000
1001
0000
1002
0000
1033
0000
2000
0000
,
3012
0000
1000
0010
1310
0000
0210
2300
3210
0320
1000
0030
1120
0000
1030
0020
,
1233
0320
0031
0010
0120
0000
0001
0101
1001
0000
0201
0001
1301
0000
0002
0200
,
2303
3201
0302
0100
0130
0000
0010
0000
0110
0000
0020
2030
3210
0300
0020
0230
,
0320
0000
0103
0000
0102
0000
2003
0200
3302
0203
0302
0103
0101
0000
0200
0301
,
0132
0000
0010
0110
0010
0000
0010
0010
0110
0000
0010
0000
1010
0000
0010
0000
,
0203
0000
0320
0000
2030
3000
0020
0000
2030
3020
0230
0000
0302
0000
0203
0000
,
0320
2030
3020
0000
2030
0000
3002
0000
0203
0000
0320
0230
0302
0023
0032
0000
,
0203
0000
0320
0000
2030
0000
3020
0000
0032
0000
0203
0302
2003
3200
0320
0000
,
0030
0000
0020
0230
0302
2003
3011
0000
0201
0000
0302
0000
0013
0000
2011
0000
,
3210
0000
0320
0000
2031
0000
3012
0000
0203
0000
0321
0000
2030
3200
2310
3020
,
0132
0000
0203
0000
0302
0000
2103
0000
3020
0000
0132
0000
2013
0000
3020
0230
,
0312
0000
0000
0203
0000
0000
0320
0000
0000
0000
0030
0000
0200
0000
0000
0000
0000
0000
2300
0000
0000
3020
0000
0000
0130
0000
0000
0000
0000
0000
0011
0000
0000
1000
0000
0000
0011
0000
0000
0000
0000
0000
0020
0000
0000
0000
0000
0000
,
0130
0001
1100
0000
0010
0100
0001
1000
0010
0000
0011
0000
0020
0000
0130
1000
,
0011
0000
0100
0000
0001
0000
0000
0000
1000
0010
1000
0001
1000
0010
1000
0001
,
1000
0010
1000
0001
1000
0010
1000
0001
1000
0010
1000
0001
1000
0010
1000
0001
,
1000
0010
1000
0001
1000
0010
1000
0001
1000
0010
1000
0001
1000
0010
1000
0001
,
1000
0010
1000
0001
1000
0010
1000
0001
1000
0010
1000
0001
1000
0010
1000
0001
,
1000
0010
1000
0001
1000
0010
1000
0001
1000
0010
1000
0001
1000
0010
1000
0001
,
1000
0010
1000
0001
1000
0010
1000
0001
1000
0010
1000
0001
1000
0010
1000
0001
,
1000
0010
1000
0001
1000
0010
1000
0001
1000
0010
1000
0001
1000
0010
1000
0001
,
1000
0010
1000
0001
1000
0010
1000
0001
1000
0010
1000
0001
1000
0010
1000
0001
,
1000
0010
1000
0001
1000
0010
1000
0001
2000
0000
0000
0000
0110
0000
0000
0000
,
0200
0320
0230
0302
0203
0320
0231
0302
3023
0000
0100
0101
0201
0000
0302
0100
,
1203
0000
0002
1000
2003
3000
0002
0000
2033
0000
0002
0010
0023
0000
0032
0010
,
0320
0000
0230
0010
0320
0000
0200
3000
2300
0000
0100
0100
0200
0030
0323
0000
,
0100
0000
0100
0100
0201
0000
0301
0000
3202
0000
0000
0000
2000
0000
3030
0000
,
0020
0000
0030
0000
0020
0000
0030
0000
0013
0010
0010
0010
0010
0010
0010
0010
,
0010
0010
0010
0010
0010
0000
0000
0000
0000
0000
0000
0000
0000
0000
0000
0300
,
0000
0000
0000
0110
0000
0000
0000
0000
0000
0000
0000
0000
0000
0000
0000
1111
;
